Narra la historia de un grupo de adolescentes estudiantes de instituto y sus padres que intentan asimilar las muchas maneras en que Internet ha cambiado sus relaciones, sus comunicaciones, la imagen de sí mismos y sus vidas amorosas. La película pretende analizar conflictos sociales tales como la cultura de los videojuegos, la anorexia, la infidelidad, la búsqueda de la fama y la proliferación de materiales ilícitos en Internet. A medida que se va poniendo a prueba a cada personaje y cada relación, se muestra la diversidad de caminos que escoge la gente (algunos trágicos, otros llenos de esperanza), mientras va quedando claro que nadie es inmune a este enorme cambio social que nos llega a través de nuestros teléfonos, nuestras tablets y nuestros ordenadores.



Calidad de Video: HDRip XviD 720x400
Calidad de Audio: Castellano MiC DubbeD HQ 256kbps
Subtitulos: Forzados Español Pegados para conversaciones SMS y Carteles.
Tamaño: 1.90 GB

Mediainfo

Código:
Format                                   : AVI
Format/Info                              : Audio Video Interleave
File size                                : 1.89 GiB
Duration                                 : 1h 59mn
Overall bit rate                         : 2 270 Kbps
Writing application                      : VirtualDubMod 1.5.10.2 (build 2542/release)
Writing library                          : VirtualDubMod build 2542/release

Video
ID                                       : 0
Format                                   : MPEG-4 Visual
Format profile                           : Advanced Simple@L5
Format settings, BVOP                    : 2
Format settings, QPel                    : No
Format settings, GMC                     : No warppoints
Format settings, Matrix                  : Default (H.263)
Muxing mode                              : Packed bitstream
Codec ID                                 : XVID
Codec ID/Hint                            : XviD
Duration                                 : 1h 59mn
Bit rate                                 : 2 005 Kbps
Width                                    : 720 pixels
Height                                   : 400 pixels
Display aspect ratio                     : 16:9
Frame rate                               : 23.976 fps
Color space                              : YUV
Chroma subsampling                       : 4:2:0
Bit depth                                : 8 bits
Scan type                                : Progressive
Compression mode                         : Lossy
Bits/(Pixel*Frame)                       : 0.290
Stream size                              : 1.67 GiB (88%)
Writing library                          : XviD 65

Audio
ID                                       : 1
Format                                   : MPEG Audio
Format version                           : Version 1
Format profile                           : Layer 3
Codec ID                                 : 55
Codec ID/Hint                            : MP3
Duration                                 : 1h 59mn
Bit rate mode                            : Constant
Bit rate                                 : 256 Kbps
Channel(s)                               : 2 channels
Sampling rate                            : 44.1 KHz
Compression mode                         : Lossy
Stream size                              : 219 MiB (11%)
Alignment                                : Split accross interleaves
Interleave, duration                     : 42 ms (1.00 video frame)
Interleave, preload duration             : 500 ms








1 Link y links Intercambiables


 
[Sólo los usuarios registrados pueden ver los enlaces. ]