Una araña gigante y alienígena se escapa de un laboratorio militar y empieza a causar el pánico por las calles de Los Ángeles. Los militares no pueden detenerla. Es entonces cuando el gobierno decide tirar de ingenio y reúne a un grupo de científicos (y a un exterminador profesional) para que resuelvan el embolado.




Título original:Big Ass Spider
Año:2013
Duración:85 min
Director:Mike Mendez
Guión:Mike Mendez
Música:Ceiri Torjussen
Fotografía:Benji Bakshi
Reparto: Greg Grunberg, Lin Shaye, Ray Wise, Clare Kramer, Patrick Bauchau, Lloyd Kaufman, Lombardo Boyar, Sarah Oliver, Alexis Peters, James C. Mathis III, Jennifer Gonzalez
Productora:Epic Pictures Group / Film Entertainment Services / Snowfort Pictures
Género: Ciencia ficción. Terror | Arañas. Comedia de terror

MEDIA INFO

Código:
Format                                   : Matroska
Format version                           : Version 2
File size                                : 3.11 GiB
Duration                                 : 1h 20mn
Overall bit rate                         : 5 511 Kbps
Encoded date                             : UTC 2014-10-12 20:33:44
Writing application                      : mkvmerge v5.0.1 ('Es ist Sommer') built on Oct  9 2011 11:55:43
Writing library                          : libebml v1.2.2 + libmatroska v1.3.0

Video
ID                                       : 1
Format                                   : AVC
Format/Info                              : Advanced Video Codec
Format profile                           : High@L4.1
Format settings, CABAC                   : Yes
Format settings, ReFrames                : 4 frames
Codec ID                                 : V_MPEG4/ISO/AVC
Duration                                 : 1h 20mn
Bit rate                                 : 4 500 Kbps
Width                                    : 1 920 pixels
Height                                   : 1 072 pixels
Display aspect ratio                     : 16:9
Frame rate mode                          : Constant
Frame rate                               : 23.976 fps
Color space                              : YUV
Chroma subsampling                       : 4:2:0
Bit depth                                : 8 bits
Scan type                                : Progressive
Bits/(Pixel*Frame)                       : 0.091
Stream size                              : 2.43 GiB (78%)
Writing library                          : x264 core 130 r2273 b3065e6
Encoding settings                        : cabac=1 / ref=3 / deblock=1:0:0 / analyse=0x3:0x113 / me=hex / subme=7 / psy=1 / psy_rd=1.00:0.00 / mixed_ref=1 / me_range=16 / chroma_me=1 / trellis=1 / 8x8dct=1 / cqm=0 / deadzone=21,11 / fast_pskip=1 / chroma_qp_offset=-2 / threads=24 / lookahead_threads=4 / sliced_threads=0 / nr=0 / decimate=1 / interlaced=0 / bluray_compat=0 / constrained_intra=0 / bframes=3 / b_pyramid=2 / b_adapt=1 / b_bias=0 / direct=1 / weightb=1 / open_gop=0 / weightp=2 / keyint=240 / keyint_min=24 / scenecut=40 / intra_refresh=0 / rc_lookahead=40 / rc=abr / mbtree=1 / bitrate=4500 / ratetol=1.0 / qcomp=0.60 / qpmin=0 / qpmax=69 / qpstep=4 / vbv_maxrate=62500 / vbv_bufsize=78125 / nal_hrd=none / ip_ratio=1.40 / aq=1:1.00
Language                                 : English
Default                                  : Yes
Forced                                   : No
Color primaries                          : BT.709
Transfer characteristics                 : BT.709
Matrix coefficients                      : BT.709

Audio #1
ID                                       : 2
Format                                   : AC-3
Format/Info                              : Audio Coding 3
Mode extension                           : CM (complete main)
Format settings, Endianness              : Big
Codec ID                                 : A_AC3
Duration                                 : 1h 20mn
Bit rate mode                            : Constant
Bit rate                                 : 448 Kbps
Channel(s)                               : 6 channels
Channel positions                        : Front: L C R, Side: L R, LFE
Sampling rate                            : 48.0 KHz
Bit depth                                : 16 bits
Compression mode                         : Lossy
Stream size                              : 259 MiB (8%)
Title                                    : Castellano AC3 5.1
Language                                 : Spanish
Default                                  : Yes
Forced                                   : No

Audio #2
ID                                       : 3
Format                                   : AC-3
Format/Info                              : Audio Coding 3
Mode extension                           : CM (complete main)
Format settings, Endianness              : Big
Codec ID                                 : A_AC3
Duration                                 : 1h 20mn
Bit rate mode                            : Constant
Bit rate                                 : 640 Kbps
Channel(s)                               : 6 channels
Channel positions                        : Front: L C R, Side: L R, LFE
Sampling rate                            : 48.0 KHz
Bit depth                                : 16 bits
Compression mode                         : Lossy
Stream size                              : 370 MiB (12%)
Title                                    : Ingles AC3 5.1
Language                                 : English
Default                                  : No
Forced                                   : No

Text #1
ID                                       : 4
Format                                   : UTF-8
Codec ID                                 : S_TEXT/UTF8
Codec ID/Info                            : UTF-8 Plain Text
Language                                 : Spanish
Default                                  : No
Forced                                   : No

Text #2
ID                                       : 5
Format                                   : UTF-8
Codec ID                                 : S_TEXT/UTF8
Codec ID/Info                            : UTF-8 Plain Text
Language                                 : English
Default                                  : No
Forced                                   : No

Menu
00:00:00.000                             : en:00:00:00.000
00:09:47.879                             : en:00:09:47.879
00:17:55.116                             : en:00:17:55.116
00:26:11.028                             : en:00:26:11.028
00:35:11.651                             : en:00:35:11.651
00:50:30.152                             : en:00:50:30.152
01:00:32.045                             : en:01:00:32.045
01:16:07.313                             : en:01:16:07.313











1 Link



Código:
http://uploaded.net/file/xnyy3uwm/B1g.4ss.Sp1d3r.BDR.M1080p.flash.rar

Links Por Partes



Código:
http://uploaded.net/file/h7p27wqg/B1g.4ss.Sp1d3r.BDR.M1080p-flash.part1.rar
http://uploaded.net/file/bl21ekps/B1g.4ss.Sp1d3r.BDR.M1080p-flash.part2.rar
http://uploaded.net/file/wht6us5i/B1g.4ss.Sp1d3r.BDR.M1080p-flash.part3.rar
http://uploaded.net/file/bz0ktqca/B1g.4ss.Sp1d3r.BDR.M1080p-flash.part4.rar
http://uploaded.net/file/fhacfsq1/B1g.4ss.Sp1d3r.BDR.M1080p-flash.part5.rar

Mixto - Uptobox, 1Fichier (Uploaded 100 MB Aproximadamente)




Código:
http://uptobox.com/623qho5rita0
http://uptobox.com/ebsysf4bu0no
http://uptobox.com/q1ya8nksl57n
http://uptobox.com/ph9m2aijppwt
http://uploaded.net/file/fhacfsq1/B1g.4ss.Sp1d3r.BDR.M1080p-flash.part5.rar




Código:
http://1if6csxd0e.1fichier.com/
http://xsaribp2qd.1fichier.com/
http://eecw0gfo5z.1fichier.com/
http://zyskdqd2mz.1fichier.com/
http://uploaded.net/file/fhacfsq1/B1g.4ss.Sp1d3r.BDR.M1080p-flash.part5.rar