Manhattan, siglo XIX. Peter Lake es un joven neoyorkino que se gana la vida de manera no muy honrada. Su próximo cometido es robar en una gran mansión que cree vacía. Sin embargo, en ella habita una bella joven, Beverly Penn (Jessica Brown Findlay, 'Downton Abbey'), que pronto despierta la pasión del protagonista. Ambos se enamoran pero Beverly está muy enferma y morirá. El mundo de fantasía que construyen hará que la joven no desaparezca del todo de su vida, pero la desolación de Peter le llevarán a acometer misiones fantásticas en las que contará con la ayuda de un caballo blanco.



Título: Cuento de invierno
Título original: Winter's Tale
País: USA
Estreno en USA: 14/02/2014
Estreno en España: 14/02/2014
Lanzamiento en DVD (alquiler): 06/06/2014
Estreno en DVD (venta): 25/06/2014
Estreno en Blu-ray: 24/06/2014
Productora: Warner Bros. Pictures
Director: Akiva Goldsman
Guión: Akiva Goldsman
Reparto: Matt Bomer, Will Smith, Russell Crowe, Colin Farrell, Jennifer Connelly, Jessica Brown Findlay, William Hurt, Kevin Corrigan, Lucy Griffiths, Eva Marie Saint, Caitlin Dulany, Eline Sandes, Paula Vanessa, Brian Hutchison, Roman Blat
Calificación: No recomendada para menores de 7 años

Calidad : BDRip MicroHD 720p
Idioma : Castellano e Ingles Ambos Ac3 5.1
Subtitulos :Español Forzados. Completos Español e Ingles.
Tamaño : 3.23 Gb

Mediainfo

Código:
Format                                   : Matroska
Format version                           : Version 2
File size                                : 3.23 GiB
Duration                                 : 1h 58mn
Overall bit rate                         : 3 921 Kbps
Encoded date                             : UTC 2014-06-05 06:51:26
Writing application                      : mkvmerge v5.7.0 ('The Whirlwind') built on Jul  8 2012 20:08:51
Writing library                          : libebml v1.2.3 + libmatroska v1.3.0

Video
ID                                       : 1
Format                                   : AVC
Format/Info                              : Advanced Video Codec
Format profile                           : High@L4.1
Format settings, CABAC                   : Yes
Format settings, ReFrames                : 4 frames
Codec ID                                 : V_MPEG4/ISO/AVC
Duration                                 : 1h 58mn
Bit rate                                 : 3 100 Kbps
Width                                    : 1 280 pixels
Height                                   : 536 pixels
Display aspect ratio                     : 2.40:1
Frame rate                               : 23.976 fps
Color space                              : YUV
Chroma subsampling                       : 4:2:0
Bit depth                                : 8 bits
Scan type                                : Progressive
Bits/(Pixel*Frame)                       : 0.188
Stream size                              : 2.48 GiB (77%)
Writing library                          : x264 core 130 r2273 b3065e6
Encoding settings                        : cabac=1 / ref=1 / deblock=1:0:0 / analyse=0x3:0x3 / me=dia / subme=1 / psy=1 / psy_rd=1.00:0.00 / mixed_ref=0 / me_range=16 / chroma_me=1 / trellis=0 / 8x8dct=1 / cqm=0 / deadzone=21,11 / fast_pskip=1 / chroma_qp_offset=0 / threads=12 / lookahead_threads=2 / sliced_threads=0 / nr=0 / decimate=1 / interlaced=0 / bluray_compat=0 / constrained_intra=0 / bframes=3 / b_pyramid=2 / b_adapt=1 / b_bias=0 / direct=1 / weightb=1 / open_gop=0 / weightp=1 / keyint=240 / keyint_min=24 / scenecut=40 / intra_refresh=0 / rc_lookahead=0 / rc=abr / mbtree=0 / bitrate=3100 / ratetol=1.0 / qcomp=0.60 / qpmin=0 / qpmax=69 / qpstep=4 / vbv_maxrate=62500 / vbv_bufsize=78125 / nal_hrd=none / ip_ratio=1.40 / pb_ratio=1.30 / aq=1:1.00
Language                                 : English
Color primaries                          : BT.709-5, BT.1361, IEC 61966-2-4, SMPTE RP177
Transfer characteristics                 : BT.709-5, BT.1361
Matrix coefficients                      : BT.709-5, BT.1361, IEC 61966-2-4 709, SMPTE RP177

Audio #1
ID                                       : 2
Format                                   : AC-3
Format/Info                              : Audio Coding 3
Mode extension                           : CM (complete main)
Codec ID                                 : A_AC3
Duration                                 : 1h 58mn
Bit rate mode                            : Constant
Bit rate                                 : 384 Kbps
Channel(s)                               : 6 channels
Channel positions                        : Front: L C R, Side: L R, LFE
Sampling rate                            : 48.0 KHz
Bit depth                                : 16 bits
Compression mode                         : Lossy
Stream size                              : 324 MiB (10%)
Language                                 : Spanish

Audio #2
ID                                       : 3
Format                                   : AC-3
Format/Info                              : Audio Coding 3
Mode extension                           : CM (complete main)
Codec ID                                 : A_AC3
Duration                                 : 1h 58mn
Bit rate mode                            : Constant
Bit rate                                 : 448 Kbps
Channel(s)                               : 6 channels
Channel positions                        : Front: L C R, Side: L R, LFE
Sampling rate                            : 48.0 KHz
Bit depth                                : 16 bits
Compression mode                         : Lossy
Stream size                              : 378 MiB (11%)
Language                                 : English

Text #1
ID                                       : 4
Format                                   : UTF-8
Codec ID                                 : S_TEXT/UTF8
Codec ID/Info                            : UTF-8 Plain Text
Title                                    : Forzados.
Language                                 : Spanish

Text #2
ID                                       : 5
Format                                   : UTF-8
Codec ID                                 : S_TEXT/UTF8
Codec ID/Info                            : UTF-8 Plain Text
Title                                    : Completos.
Language                                 : Spanish

Text #3
ID                                       : 6
Format                                   : UTF-8
Codec ID                                 : S_TEXT/UTF8
Codec ID/Info                            : UTF-8 Plain Text
Title                                    : Completos.
Language                                 : English

Menu
00:00:00.000                             : en:Chapter 1
00:10:45.978                             : en:Chapter 2
00:20:09.958                             : en:Chapter 3
00:30:41.089                             : en:Chapter 4
00:40:14.578                             : en:Chapter 5
00:52:37.904                             : en:Chapter 6
01:00:17.572                             : en:Chapter 7
01:09:26.996                             : en:Chapter 8
01:20:44.047                             : en:Chapter 9
01:30:55.032                             : en:Chapter 10
01:39:53.779                             : en:Chapter 11
01:50:38.506                             : en:Chapter 12






1 Link y Links intercambiables



 
[Sólo los usuarios registrados pueden ver los enlaces. ]