Basada en el caso de estudio de Oliver Sacks, 'El último hippie', la primera película de Jim Kohlberg examina una familia dividida por el choque cultural y generacional de los años 60. 20 años después de que su hijo huyera de casa, Henry y Helen Sawyer lo encuentran en un hospital, enfermo de un tumor cerebral que le hace incapaz de distinguir entre el pasado y el presente. Sólo reacciona ante la música rock que solía escuchar, de modo que sus padres le buscan una terapeuta musical para ayudarle con su recuperación.



Título original: The Music Never Stopped
Año: 2011
Duración: 105 min.
País: Estados Unidos
Estreno en España: 28/05/2014
Director: Jim Kohlberg
Guión: Gwyn Lurie, Gary Marks
Música: Paul Cantelon
Fotografía: Stephen Kazmierski
Reparto: J.K. Simmons, Julia Ormond, Mía Maestro, Lou Taylor Pucci, Cara Seymour, Tammy Blanchard, Scott Adsit
Productora: Mr. Tamborine Man
Género: Drama | Música. Cine independiente USA. Discapacidad

Formato: Matroska m720p
Tamaño: 2.37 Gb
Resolución: 1280x528
Audio 1: AC3 5.1 448 Kbps Castellano
Audio 2: AC3 5.1 384 kbps Ingles
Subs: Español e Ingles

Mediainfo

Código:
Format                                   : Matroska
Format version                           : Version 2
File size                                : 2.37 GiB
Duration                                 : 1h 45mn
Overall bit rate                         : 3 222 Kbps
Movie name                               : Yamil
Encoded date                             : UTC 2014-05-24 14:30:36
Writing application                      : mkvmerge v5.3.0 ('I could have danced') built on Feb  9 2012 10:38:07
Writing library                          : libebml v1.2.3 + libmatroska v1.3.0

Video
ID                                       : 1
Format                                   : AVC
Format/Info                              : Advanced Video Codec
Format profile                           : High@L3.1
Format settings, CABAC                   : Yes
Format settings, ReFrames                : 4 frames
Codec ID                                 : V_MPEG4/ISO/AVC
Duration                                 : 1h 45mn
Bit rate                                 : 2 400 Kbps
Width                                    : 1 280 pixels
Height                                   : 528 pixels
Display aspect ratio                     : 2.40:1
Frame rate mode                          : Constant
Frame rate                               : 23.976 fps
Color space                              : YUV
Chroma subsampling                       : 4:2:0
Bit depth                                : 8 bits
Scan type                                : Progressive
Bits/(Pixel*Frame)                       : 0.148
Stream size                              : 1.71 GiB (72%)
Writing library                          : x264 core 130 r2273 b3065e6
Encoding settings                        : cabac=1 / ref=4 / deblock=1:-2:-1 / analyse=0x3:0x113 / me=umh / subme=7 / psy=1 / psy_rd=1.00:0.00 / mixed_ref=1 / me_range=32 / chroma_me=1 / trellis=1 / 8x8dct=1 / cqm=0 / deadzone=21,11 / fast_pskip=1 / chroma_qp_offset=-2 / threads=36 / lookahead_threads=4 / sliced_threads=0 / nr=0 / decimate=1 / interlaced=0 / bluray_compat=0 / constrained_intra=0 / bframes=3 / b_pyramid=0 / b_adapt=2 / b_bias=0 / direct=1 / weightb=1 / open_gop=0 / weightp=2 / keyint=240 / keyint_min=24 / scenecut=40 / intra_refresh=0 / rc_lookahead=40 / rc=abr / mbtree=1 / bitrate=2400 / ratetol=1.0 / qcomp=0.60 / qpmin=0 / qpmax=69 / qpstep=4 / ip_ratio=1.40 / aq=1:1.00
Language                                 : English
Default                                  : Yes
Forced                                   : No
Color primaries                          : BT.709
Transfer characteristics                 : BT.709
Matrix coefficients                      : BT.709

Audio #1
ID                                       : 2
Format                                   : AC-3
Format/Info                              : Audio Coding 3
Mode extension                           : CM (complete main)
Format settings, Endianness              : Big
Codec ID                                 : A_AC3
Duration                                 : 1h 45mn
Bit rate mode                            : Constant
Bit rate                                 : 448 Kbps
Channel count                            : 6 channels
Channel positions                        : Front: L C R, Side: L R, LFE
Sampling rate                            : 48.0 KHz
Bit depth                                : 16 bits
Compression mode                         : Lossy
Delay relative to video                  : 20s 200ms
Stream size                              : 337 MiB (14%)
Language                                 : Spanish
Default                                  : Yes
Forced                                   : Yes

Audio #2
ID                                       : 3
Format                                   : AC-3
Format/Info                              : Audio Coding 3
Mode extension                           : CM (complete main)
Format settings, Endianness              : Big
Codec ID                                 : A_AC3
Duration                                 : 1h 45mn
Bit rate mode                            : Constant
Bit rate                                 : 384 Kbps
Channel count                            : 6 channels
Channel positions                        : Front: L C R, Side: L R, LFE
Sampling rate                            : 48.0 KHz
Bit depth                                : 16 bits
Compression mode                         : Lossy
Stream size                              : 289 MiB (12%)
Language                                 : English
Default                                  : No
Forced                                   : No

Text #1
ID                                       : 4
Format                                   : UTF-8
Codec ID                                 : S_TEXT/UTF8
Codec ID/Info                            : UTF-8 Plain Text
Language                                 : Spanish
Default                                  : No
Forced                                   : No

Text #2
ID                                       : 5
Format                                   : UTF-8
Codec ID                                 : S_TEXT/UTF8
Codec ID/Info                            : UTF-8 Plain Text
Language                                 : English
Default                                  : No
Forced                                   : No







1 Link y Links intercambiables



 
[Sólo los usuarios registrados pueden ver los enlaces. ]